* Dettagli Torrent   globale  | Commenti (0) 


- Bleeding Steel - Eroe di acciaio (2017) Repack.720p.H264.italian.Ac3-MIRCrew -


Download via torrent:
Categoria bittorrent BDRip
Descrizione
Bleeding Steel - Eroe di acciaio (2017) Repack.720p.H264.italian.Ac3-MIRCrew


[color=yellow]AUDIO ITALIANO PERFETTO E COMPLETO



NO FOUND ONLY ORIGINAL RELEASE


Bleeding Steel - Eroe di acciaio


(2017)

Quality MIRCrew on HD 720p da  1,5 gb








Regista: Leo Zhang
Genere: Fantascienza, Azione



Jackie Chan, Show Lo, Na-Na OuYang



Un agente delle forze speciali (Jackie Chan) impegnato nelle indagini su un misterioso progetto scientifico viene ferito gravemente nello scontro a fuoco iniziato per salvare lo scienziato ideatore dall’azione di una sinistra banda di criminali interessata ad impossessarsi della formula che potrebbe all’immortalità.



A Special Forces Agent is assigned to protect a scientist and his creation from a sinister gang  









General
Unique ID                                : 233043430502891519317918878566239687828 (0xAF528838AD58BDC1843672006CA3D494)
Complete name                            : C:Users
obbyDesktopBleeding Steel - Eroe di acciaio (2017) Jackie Chan.720p.H264.italian.Ac3-MIRCrew-REPACKBleeding Steel - Eroe di acciaio (2017) Jackie Chan.720p.H264.italian.Ac3-MIRCrew-REPACK.mkv
Format                                   : Matroska
Format version                           : Version 2
File size                                : 1.57 GiB
Duration                                 : 1h 49mn
Overall bit rate                         : 2 053 Kbps
Movie name                               : MIRCrew
Encoded date                             : UTC 2018-11-23 11:46:08
Writing application                      : mkvmerge v5.4.0 ('Piper&#39 built on Mar 10 2012 13:34:39
Writing library                          : Lavf54.63.100
COMMENT                                  : mircrew-releases

Video
ID                                       : 1
Format                                   : AVC
Format/Info                              : Advanced Video Codec
Format profile                           : [email protected]
Format settings, CABAC                   : Yes
Format settings, ReFrames                : 2 frames
Codec ID                                 : V_MPEG4/ISO/AVC
Duration                                 : 1h 49mn
Bit rate                                 : 1 900 Kbps
Width                                    : 1 296 pixels
Height                                   : 544 pixels
Display aspect ratio                     : 2.40:1
Frame rate mode                          : Variable
Frame rate                               : 23.976 fps
Color space                              : YUV
Chroma subsampling                       : 4:2:0
Bit depth                                : 8 bits
Scan type                                : Progressive
Bits/(Pixel*Frame)                       : 0.112
Stream size                              : 1.39 GiB (89%)
Title                                    : MIRCrew
Writing library                          : x264 core 130 r2273
Encoding settings                        : cabac=1 / ref=2 / deblock=1:0:0 / analyse=0x1:0x131 / me=hex / subme=7 / psy=1 / psy_rd=1.00:0.00 / mixed_ref=0 / me_range=16 / chroma_me=1 / trellis=1 / 8x8dct=0 / cqm=0 / deadzone=21,11 / fast_pskip=1 / chroma_qp_offset=-2 / threads=3 / lookahead_threads=1 / sliced_threads=0 / nr=0 / decimate=1 / interlaced=0 / bluray_compat=0 / constrained_intra=0 / bframes=3 / b_pyramid=0 / b_adapt=1 / b_bias=0 / direct=3 / weightb=1 / open_gop=0 / weightp=2 / keyint=230 / keyint_min=23 / scenecut=40 / intra_refresh=0 / rc_lookahead=40 / rc=abr / mbtree=1 / bitrate=1900 / ratetol=1.0 / qcomp=0.60 / qpmin=10 / qpmax=69 / qpstep=4 / vbv_maxrate=24000 / vbv_bufsize=24000 / nal_hrd=none / ip_ratio=1.40 / aq=1:1.00
Language                                 : Italian
Default                                  : Yes
Forced                                   : No
Encoded date                             : UTC 2018-11-23 11:46:08
HANDLER_NAME                             : VideoHandler

Audio
ID                                       : 2
Format                                   : AC-3
Format/Info                              : Audio Coding 3
Mode extension                           : CM (complete main)
Codec ID                                 : A_AC3
Duration                                 : 1h 49mn
Bit rate mode                            : Constant
Bit rate                                 : 192 Kbps
Channel(s)                               : 2 channels
Channel positions                        : Front: L R
Sampling rate                            : 48.0 KHz
Bit depth                                : 16 bits
Compression mode                         : Lossy
Delay relative to video                  : -5ms
Stream size                              : 150 MiB (9%)
Title                                    : Ita Ac3
Default                                  : Yes
Forced                                   : No
Encoded date                             : UTC 2018-11-23 11:46:08
HANDLER_NAME                             : SoundHandler

[/color]
Info: Per scaricare devi usare un client come uTorrent o Transmission
AnnounceURL
udp://tracker.coppersurfer.tk:6969/announce
Hash d7d7a1662507f974b39214d29c942f3a143cf22c
Peers seeds: 63 , leech: 10
Size 1.57 GB
Completato 1176x
Aggiunto 03.12.18 - 23:12:25
Uploader   robbyrs
Votazione (Voti: 0)


Condividi questo bittorrent:


html/blog:


bbcode/forum:




Aggiungi Commento


counter