* Dettagli Torrent   globale  | Commenti (0) 


- Ogni giorno - Every Day (2018).720p.H264.italian.english.Ac3-5.1.sub.ita-MIRCrew -


Download via torrent:
Categoria bittorrent BDRip
Descrizione
Visitate mircrew-releases

Every Day - Ogni giorno 2018.720p.H264.italian.english.Ac3-5.1.sub.ita-MIRCrew


NO FOUND ONLY ORIGINAL RELEASE



My release is always in double track audio italian and Original audio
for select it use VLC or dvd player home
not use wmp

Ogni giorno - Every Day

2018

Quality MIRCrew on HD 720p da  1,8 gb








GENERE: Drammatico, Fantasy, Sentimentale
ANNO: 2018
REGIA: Michael Sucsy
PAESE: USA
DURATA: 91 Min



Angourie Rice, Justice Smith, Lucas Jade Zumann, Jeni Ross, Rory McDonald, Katie Douglas, Jacob Batalon, Ian Alexander, Sean Jones



Tratto dall'omonimo romanzo best-seller di David Levithan, Ogni giorno, il film diretto da Michael Sucsy, vede protagonista una giovane ragazza di 16 anni di nome Rhiannon (Angourie Rice), che si innamora di un'anima misteriosa chiamata "A", che abita ogni giorno un corpo diverso....................



Based on David Levithan's acclaimed New York Times bestseller, Every Day tells the story of Rhiannon (Angourie Rice), a 16-year old girl who falls in love with a mysterious soul named "A" who inhabits a different body every day








General
Unique ID                                : 132186158996393493276992699736624619059 (0x637220D0B284AE023CBFECBF1D125E33)
Complete name                            : Ogni giorno - Every Day (201.720p.h264.ita.eng.sub.ita-MIRCrewOgni giorno - Every Day (201.720p.h264.ita.eng.sub.ita-MIRCrew.mkv
Format                                   : Matroska
Format version                           : Version 4 / Version 2
File size                                : 1.87 GiB
Duration                                 : 1h 37mn
Overall bit rate                         : 2 744 Kbps
Movie name                               : MIRCrew
Encoded date                             : UTC 2018-10-18 10:50:07
Writing application                      : mkvmerge v26.0.0 ('In The Game&#39 64-bit
Writing library                          : Lavf54.63.100
COPYRIGHT                                : mircrew-releases

Video
ID                                       : 1
Format                                   : AVC
Format/Info                              : Advanced Video Codec
Format profile                           : [email protected]
Format settings, CABAC                   : Yes
Format settings, ReFrames                : 2 frames
Codec ID                                 : V_MPEG4/ISO/AVC
Duration                                 : 1h 37mn
Bit rate                                 : 1 794 Kbps
Nominal bit rate                         : 1 900 Kbps
Width                                    : 1 280 pixels
Height                                   : 528 pixels
Display aspect ratio                     : 2.40:1
Frame rate mode                          : Variable
Frame rate                               : 24.000 fps
Color space                              : YUV
Chroma subsampling                       : 4:2:0
Bit depth                                : 8 bits
Scan type                                : Progressive
Bits/(Pixel*Frame)                       : 0.111
Stream size                              : 1.22 GiB (65%)
Title                                    : MIRCrew
Writing library                          : x264 core 130 r2273
Encoding settings                        : cabac=1 / ref=2 / deblock=1:0:0 / analyse=0x1:0x131 / me=hex / subme=7 / psy=1 / psy_rd=1.00:0.00 / mixed_ref=0 / me_range=16 / chroma_me=1 / trellis=1 / 8x8dct=0 / cqm=0 / deadzone=21,11 / fast_pskip=1 / chroma_qp_offset=-2 / threads=6 / lookahead_threads=1 / sliced_threads=0 / nr=0 / decimate=1 / interlaced=0 / bluray_compat=0 / constrained_intra=0 / bframes=3 / b_pyramid=0 / b_adapt=1 / b_bias=0 / direct=3 / weightb=1 / open_gop=0 / weightp=2 / keyint=240 / keyint_min=24 / scenecut=40 / intra_refresh=0 / rc_lookahead=40 / rc=abr / mbtree=1 / bitrate=1900 / ratetol=1.0 / qcomp=0.60 / qpmin=10 / qpmax=69 / qpstep=4 / vbv_maxrate=24000 / vbv_bufsize=24000 / nal_hrd=none / ip_ratio=1.40 / aq=1:1.00
Language                                 : Italian
Default                                  : Yes
Forced                                   : No
DURATION                                 : 01:37:36.750000000
NUMBER_OF_FRAMES                         : 140562
NUMBER_OF_BYTES                          : 1351891943
_STATISTICS_WRITING_APP                  : mkvmerge v26.0.0 ('In The Game&#39 64-bit
_STATISTICS_WRITING_DATE_UTC             : 2018-11-02 14:29:52
_STATISTICS_TAGS                         : BPS DURATION NUMBER_OF_FRAMES NUMBER_OF_BYTES

Audio #1
ID                                       : 2
Format                                   : AC-3
Format/Info                              : Audio Coding 3
Mode extension                           : CM (complete main)
Codec ID                                 : A_AC3
Duration                                 : 1h 37mn
Bit rate mode                            : Constant
Bit rate                                 : 448 Kbps
Channel(s)                               : 6 channels
Channel positions                        : Front: L C R, Side: L R, LFE
Sampling rate                            : 48.0 KHz
Bit depth                                : 16 bits
Compression mode                         : Lossy
Delay relative to video                  : -5ms
Stream size                              : 313 MiB (16%)
Title                                    : ita Ac3 5.1
Language                                 : Italian
Default                                  : Yes
Forced                                   : No
DURATION                                 : 01:37:37.088000000
NUMBER_OF_FRAMES                         : 183034
NUMBER_OF_BYTES                          : 327996928
_STATISTICS_WRITING_APP                  : mkvmerge v26.0.0 ('In The Game&#39 64-bit
_STATISTICS_WRITING_DATE_UTC             : 2018-11-02 14:29:52
_STATISTICS_TAGS                         : BPS DURATION NUMBER_OF_FRAMES NUMBER_OF_BYTES

Audio #2
ID                                       : 3
Format                                   : AC-3
Format/Info                              : Audio Coding 3
Mode extension                           : CM (complete main)
Codec ID                                 : A_AC3
Duration                                 : 1h 37mn
Bit rate mode                            : Constant
Bit rate                                 : 448 Kbps
Channel(s)                               : 6 channels
Channel positions                        : Front: L C R, Side: L R, LFE
Sampling rate                            : 48.0 KHz
Bit depth                                : 16 bits
Compression mode                         : Lossy
Delay relative to video                  : -5ms
Stream size                              : 313 MiB (16%)
Title                                    : eng Ac3 5.1
Language                                 : English
Default                                  : No
Forced                                   : No
DURATION                                 : 01:37:37.120000000
NUMBER_OF_FRAMES                         : 183035
NUMBER_OF_BYTES                          : 327998720
_STATISTICS_WRITING_APP                  : mkvmerge v26.0.0 ('In The Game&#39 64-bit
_STATISTICS_WRITING_DATE_UTC             : 2018-11-02 14:29:52
_STATISTICS_TAGS                         : BPS DURATION NUMBER_OF_FRAMES NUMBER_OF_BYTES

Menu
00:00:00.000                             : 01)00:00:00:000
00:08:30.291                             : 02)00:08:30:291
00:16:42.458                             : 03)00:16:42:458
00:24:24.125                             : 04)00:24:24:125
00:34:01.625                             : 05)00:34:01:625
00:40:46.208                             : 06)00:40:46:208
00:48:54.083                             : 07)00:48:54:083
00:57:15.708                             : 000:57:15:708
01:05:16.416                             : 09)01:05:16:416
01:12:07.458                             : 10)01:12:07:458
01:20:22.083                             : 11)01:20:22:083
01:29:30.375                             : 12)01:29:30:375

Info: Per scaricare devi usare un client come uTorrent o Transmission
AnnounceURL
udp://tracker.coppersurfer.tk:6969/announce
Hash 028ac7120f2494d0497d81dd1337b0466059d0b1
Peers seeds: 61 , leech: 15
Size 1.87 GB
Completato 1824x
Aggiunto 03.12.18 - 12:12:15
Uploader   robbyrs
Votazione (Voti: 0)


Condividi questo bittorrent:


html/blog:


bbcode/forum:




Aggiungi Commento


counter